website statistics
The.Mandalorian.S02E04.The.Siege.WEB-DL.XviD.B4ND1T69 > 외국티비 > 대한민국 No.1 바다보아

팝업레이어 알림

ibekr_block.png
 [구글검색] 구글에서 바다보아 검색 - 구글에서 토렌트를 검색하실 때에 검색어 뒤에 바다보아를 꼭 붙여서 검색하세요.     바다보아에서 광고중인 웹에 문제가 있다면 상단에 나와 있는 운영자 이메일로 연락 주십시오.     다운로드가 완료될 때까지 저희가 함께하겠습니다. 편안한 시간 되십시오.

웹하드 파일마루

   

   

   

The.Mandalorian.S02E04.The.Siege.WEB-DL.XviD.B4ND1T69

Mandalorian-S02-banner-1.jpg


Creator: Jon Favreau
Stars: Pedro Pascal, Kyle Pacek, Brendan Wayne

Plot/Story:
Chapter 12 : The Siege
The Mandalorian rejoins old allies for a new mission.

General
Complete name : The.Mandalorian.S02E04.The.Siege.WEB-DL.XviD.B4ND1T69.avi
Format : AVI
Format/Info : Audio Video Interleave
File size : 244 MiB
Duration : 37 min 2 s
Overall bit rate : 922 kb/s
Subtitles : Yes...Included(HI)

Video
ID : 0
Format : MPEG-4 Visual
Format profile : Advanced [email protected]
Format settings, BVOP : 2
Format settings, QPel : No
Format settings, GMC : No warppoints
Format settings, Matrix : Default (H.263)
Codec ID : XVID
Codec ID/Hint : XviD
Duration : 37 min 2 s
Bit rate : 780 kb/s
Width : 640 pixels
Height : 272 pixels
Display aspect ratio : 2.35:1
Frame rate : 23.976 (24000/1001) FPS
Color space : YUV
Chroma subsampling : 4:2:0
Bit depth : 8 bits
Scan type : Progressive
Compression mode : Lossy
Bits/(Pixel*Frame) : 0.187
Stream size : 207 MiB (85%)
Writing library : XviD 64

Audio
ID : 1
Format : MPEG Audio
Format version : Version 1
Format profile : Layer 3
Codec ID : 55
Codec ID/Hint : MP3
Duration : 37 min 2 s
Bit rate mode : Constant
Bit rate : 128 kb/s
Channel(s) : 2 channels
Sampling rate : 48.0 kHz
Compression mode : Lossy
Stream size : 33.9 MiB (14%)
Alignment : Aligned on interleaves
Interleave, duration : 24 ms (0.58 video frame)

Screenshots:

Mandalorian-2-4-1.png

Mandalorian-2-4-3.png

Mandalorian-2-4-4.png

Mandalorian-2-4-5.png

Mandalorian-2-4-6.png

The.Mandalorian.S02E04.The.Siege.WEB-DL.XviD.B4ND1T69

Mandalorian-S02-banner-1.jpg


Creator: Jon Favreau
Stars: Pedro Pascal, Kyle Pacek, Brendan Wayne

Plot/Story:
Chapter 12 : The Siege
The Mandalorian rejoins old allies for a new mission.

General
Complete name : The.Mandalorian.S02E04.The.Siege.WEB-DL.XviD.B4ND1T69.avi
Format : AVI
Format/Info : Audio Video Interleave
File size : 244 MiB
Duration : 37 min 2 s
Overall bit rate : 922 kb/s
Subtitles : Yes...Included(HI)

Video
ID : 0
Format : MPEG-4 Visual
Format profile : Advanced [email protected]
Format settings, BVOP : 2
Format settings, QPel : No
Format settings, GMC : No warppoints
Format settings, Matrix : Default (H.263)
Codec ID : XVID
Codec ID/Hint : XviD
Duration : 37 min 2 s
Bit rate : 780 kb/s
Width : 640 pixels
Height : 272 pixels
Display aspect ratio : 2.35:1
Frame rate : 23.976 (24000/1001) FPS
Color space : YUV
Chroma subsampling : 4:2:0
Bit depth : 8 bits
Scan type : Progressive
Compression mode : Lossy
Bits/(Pixel*Frame) : 0.187
Stream size : 207 MiB (85%)
Writing library : XviD 64

Audio
ID : 1
Format : MPEG Audio
Format version : Version 1
Format profile : Layer 3
Codec ID : 55
Codec ID/Hint : MP3
Duration : 37 min 2 s
Bit rate mode : Constant
Bit rate : 128 kb/s
Channel(s) : 2 channels
Sampling rate : 48.0 kHz
Compression mode : Lossy
Stream size : 33.9 MiB (14%)
Alignment : Aligned on interleaves
Interleave, duration : 24 ms (0.58 video frame)

Screenshots:

Mandalorian-2-4-1.png

Mandalorian-2-4-3.png

Mandalorian-2-4-4.png

Mandalorian-2-4-5.png

Mandalorian-2-4-6.png


Please Seed For As Long As Possible
Or At Least 1:1 Ratio...Thanks
Enjoy Peeps

The.Mandalorian.S02E04.The.Siege.WEB-DL.XviD.B4ND1T69
번역하기: 한국 한국어


<< 이 게시판에서 관련된 자료 목록 >>
 [구글검색] 구글에서 바다보아 검색 - 구글에서 토렌트를 검색하실 때에 검색어 뒤에 바다보아를 꼭 붙여서 검색하세요.     바다보아에서 광고중인 웹에 문제가 있다면 상단에 나와 있는 운영자 이메일로 연락 주십시오.     다운로드가 완료될 때까지 저희가 함께하겠습니다. 편안한 시간 되십시오.

웹하드 찐플

   

   

   

IMFORMATION STORE

상단으로 가운데로 하단으로